<?xml version="1.0" standalone="no"?>
<!DOCTYPE svg PUBLIC "-//W3C//DTD SVG 1.1//EN" "http://www.w3.org/Graphics/SVG/1.1/DTD/svg11.dtd" >
<svg xmlns="http://www.w3.org/2000/svg">
<metadata>
This is a custom SVG font generated by IcoMoon.
<iconset grid="14"></iconset>
</metadata>
<defs>
<font id="icons" horiz-adv-x="448" >
<font-face units-per-em="448" ascent="384" descent="-64" />
<missing-glyph horiz-adv-x="448" />
<glyph class="hidden" unicode="&#xf000;" d="M0,384L 448 -64L0 -64 z" horiz-adv-x="0" />
<glyph unicode="&#x21;" d="M 175.854,198.066A48.146,48.146 540 1 1 272.146,198.066A48.146,48.146 540 1 1 175.854,198.066zM 259.954-39.184c-4.56-17.682-22.852-23.954-35.954-23.954s-31.353,6.272-35.916,23.954l-13.692,136.805
		c0,18.899, 15.321,34.124, 34.227,34.124l 30.802,0 c 18.899,0, 34.224-15.225, 34.224-34.124L 259.954-39.184zM 86.943,56.002c-25.884,30.974-41.478,70.853-41.478,114.378c0,98.601, 79.934,178.531, 178.535,178.531
		c 98.598,0, 178.535-79.93, 178.535-178.531c0-43.253-15.38-82.901-40.964-113.799l 24.581-23.72c 31.525,37.115, 50.606,85.113, 50.606,137.518
		C 436.755,287.697, 341.317,383.138, 224,383.138c-117.314,0-212.759-95.441-212.759-212.755c0-52.685, 19.288-100.914, 51.117-138.112L 86.943,56.002zM 155.291,121.961c-16.259,17.049-26.263,40.114-26.263,65.532c0,52.45, 42.519,94.973, 94.973,94.973
		c 52.45,0, 94.973-42.519, 94.973-94.973c0-25.14-9.783-47.977-25.729-64.971l 24.578-23.713c 21.897,23.158, 35.374,54.366, 35.374,88.683
		c0,71.239-57.95,129.193-129.193,129.193c-71.236,0-129.196-57.954-129.196-129.193c0-34.603, 13.695-66.035, 35.916-89.245L 155.291,121.961z" data-tags="itunes, podcast, rss" />
<glyph unicode="&#x22;" d="M 174.839,230.49L 266.714,230.49L 266.714,90.462L 174.839,90.462zM 392.336,230.49L 392.336,90.462L 448,90.462L 448,230.49 	zM 91.014,230.504L 154,230.504L 154,90.476L 91.014,90.476zM 56.224,230.504L 70,230.504L 70,90.476L 56.224,90.476zM0,230.49L 34.342,230.49L 34.342,90.462L0,90.462zM 322.245,47.524L 336,47.524L 336,272.476L 322.245,272.476 	zM 287.357,230.504L 301,230.504L 301,90.476L 287.357,90.476zM 357,230.476L 370.783,230.476L 370.783,90.441L 357,90.441z" data-tags="stitcher" />
<glyph unicode="&#x23;" d="M0,100.875c 7.014,12.719, 13.402,24.851, 20.287,36.694
		c 26.049,44.799, 56.361,86.407, 93.253,122.979c 30.825,30.559, 65.013,56.487, 104.834,74.351c 31.353,14.065, 64.149,21.683, 98.676,21.183
		c 43.513-0.631, 80.993-15.273, 111.545-46.93c 12.763-13.222, 19.504-27.877, 19.509-46.825c 0.017-59.008-8.203-116.349-31.273-170.991
		c-10.687-25.31-24.769-48.612-43.888-68.61c-25.949-27.143-57.926-42.419-94.74-48.33
		c-45.467-7.301-88.789,0.806-130.93,17.814c-24.844,10.027-47.847,23.335-69.738,38.702c-22.012,15.453-42.036,33.234-61.226,51.98
		C 10.702,88.37, 5.74,94.505,0,100.875z M 359.911,85.516c 0.186,1.758, 0.875,64.825, 0.133,95.102
		c-0.278,11.368-2.454,22.896-5.344,33.939c-3.271,12.503-12.397,20.663-24.932,23.536c-9.916,2.272-20.216,3.906-30.359,3.979
		c-51.749,0.374-103.501,0.151-155.253,0.12c-1.84-0.001-3.68-0.187-5.849-0.306c0-52.369,0-104.288,0-156.193
		c 16.761,0, 32.908,0, 49.524,0c0,2.469, 0.315,68.060, 0.57,98.822c 0.034,4.078, 0.333,8.211, 1.072,12.213
		c 0.917,4.959, 4.057,8.125, 9.236,8.81c 2.649,0.351, 5.33,0.69, 7.993,0.657c 12.241-0.147, 17.056-4.703, 17.161-16.909
		c 0.278-32.343, 0.746-101.326, 0.896-103.734c 16.477,0, 32.479,0, 48.827,0c 0.188,1.621, 0.703,52.005, 0.823,75.83
		c 0.051,10.096-0.008,20.194, 0.291,30.282c 0.287,9.653, 3.86,13.632, 13.467,14.242c 16.943,1.075, 21.823-3.741, 21.837-19.287
		c 0.022-27.769, 0.773-95.121, 1.037-101.104C 327.602,85.516, 343.486,85.516, 359.911,85.516z" data-tags="Miro" />
<glyph unicode="&#x24;" d="M 59.629,55.468c-32.898,0-59.628-26.834-59.628-59.533c0-32.88, 26.731-59.413, 59.628-59.413
		c 33.016,0, 59.716,26.534, 59.716,59.413C 119.344,28.635, 92.647,55.468, 59.629,55.468zM 0.068,231.781l0-85.863 c 55.906,0, 108.482-21.863, 148.075-61.474c 39.543-39.514, 61.373-92.328, 61.373-148.444l 86.241,0 
		C 295.757,99.109, 163.072,231.781, 0.068,231.781zM 0.17,384l0-85.906 c 199.405,0, 361.706-162.459, 361.706-362.094L 448-64 C 448,182.956, 247.076,384, 0.17,384z" data-tags="feed, rss, social" />
<glyph unicode="&#x25;" d="M 55.125,131 C 59.699,131.654 64.371,132 69.125,132 L 83.125,132 L 83.125-64.002 L 69.125-64.002 C 64.371-64.002 59.699-63.656 55.125-63.002 L 55.125,131 ZM 364.875,132.064 L 378.875,132.064 C 383.63,132.064 388.301,131.718 392.875,131.064 L 392.875-62.937 C 388.301-63.591 383.63-63.937 378.875-63.937 L 364.875-63.937 L 364.875,132.063 ZM 448,160 C 448,133.13 443.263,107.367 434.588,83.492 C 443.107,68.967 448,52.057 448,34 C 448-5.092 425.108-38.834 392-54.564 L 392,122.564 C 400.807,118.381 408.878,112.913 416,106.418 C 418.623,119.202 420,132.44 420,146 C 420,254.248 332.248,342 224,342 C 115.752,342 28,254.248 28,146 C 28,132.44 29.378,119.202 32,106.418 C 39.121,112.913 47.195,118.381 56,122.564 L 56-54.564 C 22.893-38.834 0-5.092 0,34 C 0,52.057 4.893,68.967 13.412,83.492 C 4.737,107.367 0,133.13 0,160 C 0,283.712 100.288,384 224,384 C 347.712,384 448,283.712 448,160 ZM 141.768-4.231 C 158.286-4.231 171.642-17.656 171.642-34.016 C 171.642-50.465 158.286-63.738 141.768-63.738 C 125.31-63.738 111.937-50.465 111.937-34.016 C 111.937-17.656 125.309-4.231 141.768-4.231 Z M 111.97,83.974 C 193.518,83.974 259.897,17.601 259.9-64 L 216.755-64 C 216.755-35.927 205.833-9.505 186.051,10.265 C 166.242,30.080 139.94,41.017 111.97,41.017 L 111.97,83.974 Z M 112.021,160.127 C 235.544,160.127 336.063,59.547 336.063-63.999 L 292.976-63.999 C 292.976,35.874 211.78,117.15 112.021,117.15 L 112.021,160.127 Z" data-tags="Podcast RSS" />
<glyph unicode="&#x26;" d="M 390.233,159.036c-7.913,0-15.465-1.54-22.34-4.312C 363.296,204.755, 319.64,244, 266.392,244
		c-13.031,0-25.673-2.463-36.889-6.634c-4.357-1.62-5.503-3.29-5.503-6.526l0-176.187 c0-3.398, 2.73-6.227, 6.179-6.561
		C 230.326,48.077, 389.226,48, 390.256,48C 422.152,48, 448,72.857, 448,103.516S 422.129,159.036, 390.233,159.036zM 175,48L 189,48L 196,146.096L 189,244L 175,244L 168,146.096 	zM 133,48L 119,48L 112,119.203L 119,188L 133,188L 140,118 	zM 63,48L 77,48L 84,104L 77,160L 63,160L 56,104 	zM 7,76L 21,76L 28,104L 21,132L 7,132L0,104 	z" data-tags="soundcloud, social" />
<glyph unicode="&#x27;" d="M 221.62,235.292c-40.18,0.182-72.744,33.040-72.506,73.192c 0.056,19.446, 7.714,37.73, 21.532,51.422
		c 13.86,13.706, 32.13,21.196, 51.618,21.126c 40.18-0.196, 72.702-33.040, 72.534-73.206C 294.616,267.618, 261.8,235.11, 221.62,235.292M 17.822,207.068c 0.014,3.836, 3.136,6.916, 6.958,6.888l 196.098-0.896c 35.406-0.168, 64.050-28.966, 63.896-64.246l-0.266-56.924
		c-0.014-3.85-3.15-6.958-6.958-6.93c-0.168,0-0.308,0-0.448-0.014L 81.186,85.856c-35.252,0.14-63.784,28.966-63.644,64.232
		L 17.822,207.068zM 367.36,213.284l 56.21-0.266c 3.808-0.014, 6.916-3.136, 6.888-6.944l-0.266-56.994c-0.182-35.252-28.952-63.798-64.232-63.616
		l-56.042,0.266c-3.976,0.014-7.070,3.080-7.056,6.958l 0.294,56.966C 303.282,184.906, 332.122,213.466, 367.36,213.284M 277.424,66.564l-113.19,0.518c-3.808,0.014-6.958-3.094-6.986-6.888l-0.518-114.002c-0.014-3.864, 3.094-6.93, 7.070-6.958
		l 56.042-0.252c 35.252-0.182, 64.078,28.378, 64.232,63.644l 0.266,56.98C 284.368,63.428, 281.26,66.536, 277.424,66.564" data-tags="tunein" />
<glyph unicode="&#x28;" d="M 323.716,326.15c-41.416,0-78.401-22.104-99.702-54.32c-21.222,32.605-57.998,54.32-99.742,54.32
	C 58.579,326.15, 5.315,272.753, 5.315,206.849c0-37.055, 20.039-73.428, 46.493-95.327c 1.092-1.298, 67.561-62.785, 126.146-116.923L 177.954,82.069 
	c0,59.702, 91.032,59.262, 91.032,0l0-88.219 L 388.688,106.992C 418.020,130.818, 442.685,165.035, 442.685,206.849
	C 442.685,272.753, 389.441,326.15, 323.716,326.15 M 117.139,112.741c-1.621-1.847-3.891-2.775-6.176-2.775
	c-1.941,0-3.892,0.677-5.458,2.075C 69.983,143.609, 51.968,176.567, 51.968,209.997l0,0.399 c0,28.729, 17.475,61.393, 40.662,75.98
	c 3.851,2.42, 8.935,1.252, 11.359-2.62c 2.42-3.86, 1.257-8.968-2.599-11.388c-18.473-11.613-32.939-38.847-32.939-61.972l0-0.399 
	c0-28.489, 16.148-57.289, 47.988-85.585C 119.843,121.381, 120.162,116.152, 117.139,112.741 M 170.173,143.408
	c-1.512-2.692-4.316-4.218-7.204-4.218c-1.361,0-2.743,0.337-4.021,1.047c-24.086,13.529-40.296,40.088-40.397,66.173l0,0.25 
	c 0.086,24.802, 13.734,47.357, 35.643,58.915c 4.027,2.13, 9.009,0.579, 11.139-3.467c 2.115-4.035, 0.563-9.040-3.466-11.164
	c-16.514-8.715-26.789-25.717-26.829-44.409c 0.040-20.325, 12.886-41.157, 31.967-51.867
	C 170.976,152.443, 172.393,147.4, 170.173,143.408 M 224.279,164.535c-19.699,0-35.713,16.037-35.713,35.817
	c0,19.795, 16.014,35.81, 35.713,35.81c 19.765,0, 35.742-16.015, 35.742-35.81C 260.021,180.572, 244.044,164.535, 224.279,164.535
	 M 289.051,140.236c-1.277-0.71-2.649-1.047-4.027-1.047c-2.884,0-5.681,1.526-7.194,4.218c-2.215,3.992-0.803,9.035, 3.169,11.26
	c 19.080,10.709, 31.917,31.542, 31.966,51.867c-0.044,18.692-10.316,35.693-26.831,44.409c-4.032,2.124-5.584,7.129-3.463,11.164
	c 2.131,4.040, 7.103,5.597, 11.144,3.467c 21.905-11.559, 35.545-34.113, 35.645-58.915l0-0.25 
	C 329.349,180.324, 313.131,153.765, 289.051,140.236 M 396.033,209.997c0-33.43-18.010-66.388-53.53-97.956
	c-1.566-1.398-3.532-2.075-5.467-2.075c-2.274,0-4.544,0.929-6.171,2.775c-3.023,3.412-2.713,8.64, 0.704,11.671
	c 31.838,28.298, 47.985,57.096, 47.985,85.585l0,0.399 c0,23.126-14.467,50.359-32.936,61.972c-3.86,2.42-5.018,7.529-2.598,11.388
	c 2.414,3.872, 7.497,5.034, 11.359,2.62c 23.178-14.587, 40.653-47.252, 40.653-75.98L 396.033,209.997 " data-tags="iheartradio2" />
<glyph unicode="&#x29;" d="M 364,328L 84,328 c-46.2,0-84-37.8-84-84l0-168 c0-46.2, 37.8-84, 84-84l 280,0 c 46.2,0, 84,37.8, 84,84L 448,244 C 448,290.2, 410.2,328, 364,328z
	 M 168,48L 168,272 l 140-112L 168,48z" data-tags="youtube, social" />
<glyph unicode="&#x2a;" d="M 22.4,6.242l 29.34,29.344L 51.74,81.842 L 145.846-12.256L 99.586-12.256 L 70.246-41.6L 22.4,6.242z M 46.207,233.293l0-72.419 
	c 47.143,0, 93.238-18.395, 126.614-51.789c 33.327-33.331, 51.731-79.596, 51.731-126.896l 72.706,0 C 297.257,119.711, 183.622,233.293, 46.207,233.293z
	 M 46.193,361.6l0-72.401 c 168.094,0, 306.808-138.71, 306.808-307.005L 425.6-17.807 C 425.6,190.379, 254.343,361.6, 46.193,361.6z" horiz-adv-x="448" data-tags="blip" />
<glyph unicode="&#x2b;" d="M 448,298.942c-16.483-7.31-34.197-12.251-52.789-14.473c 18.975,11.375, 33.55,29.387, 40.413,50.851
	c-17.761-10.534-37.431-18.183-58.367-22.304c-16.765,17.863-40.653,29.024-67.089,29.024c-50.76,0-91.913-41.15-91.913-91.909
	c0-7.204, 0.813-14.219, 2.38-20.947c-76.388,3.834-144.113,40.425-189.445,96.034c-7.912-13.575-12.445-29.363-12.445-46.208
	c0-31.889, 16.226-60.022, 40.889-76.504c-15.067,0.478-29.239,4.612-41.63,11.497c-0.009-0.383-0.009-0.768-0.009-1.156
	c0-44.532, 31.683-81.68, 73.728-90.125c-7.711-2.1-15.832-3.225-24.215-3.225c-5.923,0-11.68,0.578-17.293,1.65
	c 11.697-36.514, 45.64-63.090, 85.86-63.829c-31.456-24.653-71.088-39.346-114.151-39.346c-7.419,0-14.735,0.435-21.926,1.286
	c 40.675-26.079, 88.988-41.297, 140.893-41.297c 169.060,0, 261.51,140.054, 261.51,261.513c0,3.985-0.090,7.948-0.267,11.891
	C 420.096,264.324, 435.678,280.511, 448,298.942z" data-tags="twitter, tweet, social" />
<glyph unicode="&#x2c;" d="M 251.943-64L 168-64 L 168,160 l-56,0 l0,77.197 l 56,0.025l-0.091,45.479C 167.909,345.68, 184.986,384, 259.171,384l 61.764,0 l0-77.212 l-38.601,0 
	c-28.889,0-30.278-10.787-30.278-30.924l-0.115-38.642l 69.427,0 l-8.183-77.197L 252,160L 251.943-64z" data-tags="facebook, social" />
<glyph unicode="&#x2d;" d="M 244.591,356c0,0-87.918,0-117.224,0C 74.815,356, 25.356,316.185, 25.356,270.065c0-47.13, 35.823-85.166, 89.288-85.166
		c 3.718,0, 7.331,0.074, 10.868,0.329c-3.469-6.644-5.951-14.126-5.951-21.893c0-13.098, 7.045-23.717, 15.955-32.386
		c-6.731,0-13.231-0.196-20.323-0.196C 50.102,130.754,0,89.297,0,46.307c0-42.34, 54.925-68.825, 120.021-68.825
		c 74.21,0, 115.196,42.107, 115.196,84.45c0,33.95-10.017,54.282-40.988,76.184c-10.595,7.5-30.857,25.741-30.857,36.463
		c0,12.565, 3.586,18.755, 22.5,33.533c 19.386,15.148, 33.106,36.445, 33.106,61.213c0,29.49-13.134,58.23-37.788,67.713l 37.167,0 
		L 244.591,356z M 203.648,69.237c 0.93-3.925, 1.437-7.965, 1.437-12.087c0-34.212-22.047-60.948-85.301-60.948
		c-44.993,0-77.488,28.483-77.488,62.694c0,33.531, 40.305,61.444, 85.297,60.958c 10.5-0.111, 20.286-1.801, 29.168-4.677
		C 181.184,98.19, 198.706,88.593, 203.648,69.237z M 131.608,196.848c-30.204,0.903-58.903,33.786-64.117,73.439
		c-5.213,39.666, 15.037,70.018, 45.232,69.121c 30.192-0.907, 58.904-32.731, 64.119-72.388
		C 182.052,227.356, 161.797,195.944, 131.608,196.848zM 364,272L 364,356L 336,356L 336,272L 252,272L 252,244L 336,244L 336,160L 364,160L 364,244L 448,244L 448,272 	z" data-tags="google plus, social" />
<glyph unicode="&#x2e;" d="M 113.702,315.68c0-23.811-17.584-43.098-46.502-43.098c-27.216,0-44.8,19.286-44.8,43.098c0,24.371, 18.166,43.098, 45.942,43.098
		S 113.142,340.051, 113.702,315.68z M 24.685-38.778L 24.685,238.534 L 110.88,238.534 l0-277.312 L 24.685-38.778 zM 162.467,150.077c0,34.586-1.142,63.504-2.285,88.458l 74.861,0 l 3.987-38.573l 1.702,0 c 11.334,18.166, 39.133,44.8, 85.635,44.8
		c 56.694,0, 99.232-37.99, 99.232-119.661l0-163.901 l-86.195,0 l0,153.686 c0,35.728-12.499,60.122-43.68,60.122c-23.811,0-37.968-16.442-44.218-32.323
		c-2.285-5.667-2.845-13.597-2.845-21.549l0-159.936 L 162.467-38.8 L 162.467,150.077 z" data-tags="linkedin, social" />
<glyph unicode="&#x2f;" d="M 364.657-39.592c-19.119-8.992-36.474-15.334-51.987-18.978c-15.531-3.606-32.315-5.428-50.341-5.428
	c-20.486,0-32.574,2.575-48.303,7.724c-15.732,5.192-29.164,12.602-40.259,22.111c-11.134,9.591-18.822,19.779-23.121,30.551
	c-4.299,10.778-6.438,26.431-6.438,46.918L 144.207,200.415 L 83.343,200.415 l0,63.44 c 17.591,5.706, 37.999,13.907, 50.519,24.567
	c 12.58,10.697, 22.648,23.496, 30.234,38.476c 7.609,14.939, 12.84,33.999, 15.694,57.101l 63.716,0 l0-103.62 L 347.086,280.378 l0-79.964 L 243.504,200.414 l0-114.87 
	c0-25.995-0.337-40.975, 2.419-48.344c 2.734-7.33, 9.589-14.938, 17.058-19.338c 9.925-5.946, 21.237-8.915, 33.997-8.915
	c 22.686,0, 45.252,7.371, 67.68,22.111L 364.658-39.592 L 364.657-39.592z" data-tags="tumblr, social" />
<glyph unicode="&#x30;" d="M 224,384C 100.288,384,0,283.712,0,160s 100.286-224, 224-224c 123.712,0, 224,100.288, 224,224S 347.712,384, 224,384z M 245.719,84.698
	c-20.353,1.581-28.893,11.662-44.846,21.354C 192.097,60.037, 181.377,15.92, 149.625-7.123
	c-9.802,69.548, 14.391,121.784, 25.624,177.237c-19.155,32.246, 2.306,97.14, 42.709,81.145
	c 49.711-19.665-43.050-119.878, 19.22-132.394c 65.021-13.067, 91.564,112.813, 51.25,153.748
	c-58.257,59.109-169.574,1.348-155.886-83.281c 3.331-20.69, 24.707-26.967, 8.542-55.52c-37.284,8.265-48.409,37.67-46.977,76.874
	c 2.305,64.17, 57.655,109.097, 113.175,115.31c 70.212,7.859, 136.109-25.772, 145.209-91.821
	C 362.734,159.63, 320.795,78.894, 245.719,84.698z" data-tags="pinterest, social" />
<glyph unicode="&#x31;" d="M 247.565,203.456l 30.554-14.762l 46.122,14.762L 324.24,230.224 C 324.24,285.373, 279.283,330.24, 224,330.24c-55.261,0-100.218-44.867-100.218-100.016l0-140.448 
	c0-12.947-10.573-23.498-23.542-23.498s-23.542,10.55-23.542,23.498L 76.698,148.576 L0,148.576 l0-58.8 C0,34.627, 44.957-10.24, 100.24-10.24s 100.24,44.867, 100.24,100.016
	l0,140.448 c0,12.947, 10.573,23.498, 23.542,23.498c 12.992,0, 23.565-10.55, 23.565-23.498L 247.587,203.456 z M 371.325,148.576l0-58.8 c0-12.947-10.573-23.498-23.542-23.498
	c-12.992,0-23.565,10.55-23.565,23.498l0,59.987 l-46.122-14.762l-30.554,14.762l0-59.987 c0-55.149, 44.957-100.016, 100.24-100.016
	c 55.261,0, 100.218,44.867, 100.218,100.016L 448,148.576 L 371.325,148.576 z" data-tags="stumbleupon, social" />
<glyph unicode="&#x32;" d="M0,160A98,98 7020 1 1 196,160A98,98 7020 1 1 0,160zM 252,160A98,98 7020 1 1 448,160A98,98 7020 1 1 252,160z" data-tags="flickr, social" />
<glyph unicode="&#x33;" d="M 340.5,27.5l0,162 l-33.75,0 q 5-15.75 5-32.75q0-31.5 -16-58.125t-43.5-42.125t-60-15.5q-49.25,0 -84.25,33.875t-35,81.875q0,17 5,32.75l-35.25,0 l0-162 q0-6.5 4.375-10.875t 10.875-4.375l 267.25,0 q 6.25,0 10.75,4.375t 4.5,10.875zM 269.5,160.75q0,31 -22.625,52.875t-54.625,21.875q-31.75,0 -54.375-21.875t-22.625-52.875 t 22.625-52.875t 54.375-21.875q 32,0 54.625,21.875t 22.625,52.875zM 340.5,250.75l0,41.25 q0,7 -5,12.125t-12.25,5.125l-43.5,0 q-7.25,0 -12.25-5.125t-5-12.125l0-41.25 q0-7.25 5-12.25t 12.25-5l 43.5,0 q 7.25,0 12.25,5t 5,12.25zM 384,302.75l0-285.5 q0-20.25 -14.5-34.75t-34.75-14.5l-285.5,0 q-20.25,0 -34.75,14.5t-14.5,34.75l0,285.5 q0,20.25 14.5,34.75 t 34.75,14.5l 285.5,0 q 20.25,0 34.75-14.5t 14.5-34.75z" horiz-adv-x="384" data-tags="instagram, social" />
<glyph unicode="&#x34;" d="M 224.001-64C 100.486-64,0,36.486,0,160S 100.486,384, 224.001,384
	C 347.517,384, 448,283.514, 448,160S 347.517-64, 224.001-64z M 412.912,129.337c-6.546,2.065-59.222,17.776-119.179,8.18
	c 25.027-68.769, 35.209-124.779, 37.169-136.416C 373.826,30.124, 404.383,76.101, 412.912,129.337z M 298.739-16.417
	c-2.846,16.787-13.955,75.289-40.818,145.093c-0.42-0.144-0.841-0.28-1.26-0.425c-107.918-37.607-146.657-112.445-150.1-119.483
	c 32.441-25.298, 73.21-40.39, 117.441-40.39C 250.505-31.622, 275.766-26.202, 298.739-16.417z M 81.855,31.778
	c 4.335,7.42, 56.844,94.362, 155.521,126.26c 2.495,0.805, 5.008,1.562, 7.541,2.275c-4.804,10.869-10.036,21.75-15.512,32.469
	c-95.549-28.595-188.267-27.401-196.639-27.228c-0.058-1.943-0.097-3.889-0.097-5.848C 32.669,110.567, 51.298,65.7, 81.855,31.778z
	 M 36.712,198.895c 8.557-0.114, 87.385-0.456, 176.882,23.311c-31.701,56.355-65.893,103.736-70.937,110.652
	C 89.129,307.612, 49.118,258.267, 36.712,198.895z M 179.164,345.719c 5.288-7.081, 40.039-54.402, 71.391-112.006
	c 68.035,25.499, 96.836,64.212, 100.278,69.114c-33.788,29.977-78.217,48.212-126.832,48.212C 208.562,351.039, 193.552,349.187, 179.164,345.719z
	 M 372.103,280.701c-4.032-5.457-36.096-46.558-106.838-75.44c 4.453-9.114, 8.721-18.383, 12.694-27.713
	c 1.407-3.307, 2.78-6.599, 4.12-9.874c 63.664,8.005, 126.92-4.825, 133.23-6.159C 414.887,206.675, 398.751,248.144, 372.103,280.701z" data-tags="dribbble, social" />
<glyph unicode="&#x35;" d="M 220.815,77.286c 43.635,0.363, 74.664,22.189, 93.072,65.471l 0.963,0 l0-66.013 c0-4.919-0.323-12.548-0.963-22.915
	c-1.313-10.73-4.82-22.279-10.51-34.644c-5.703-11.639-14.909-21.558-27.597-29.734c-12.548-8.911-30.056-13.548-52.537-13.915
	c-21.656,0-39.971,5.64-54.961,16.912c-15.322,11.097-24.273,29.102-26.871,54.015l-19.049,0 c 1.953-32.368, 12.284-55.467, 31.011-69.292
	c 18.234-13.27, 41.368-19.914, 69.386-19.914c 27.677,0, 49.262,5.183, 64.732,15.555c 15.304,9.999, 26.293,22.463, 32.977,37.377
	c 6.675,14.909, 10.667,29.098, 11.962,42.551c 0.99,13.462, 1.469,23.099, 1.469,28.918L 333.899,353.908 l-19.058,0 l0-60.014 l-0.963,0 
	c-7.334,22.001-19.461,38.64-36.409,49.921c-17.096,11.092-35.988,16.643-56.663,16.643c-36.006-0.73-63.361-14.641-82.083-41.74
	c-19.224-26.911-28.824-60.108-28.824-99.572c0-40.557, 9.117-74.108, 27.35-100.661C 155.671,91.38, 183.514,77.649, 220.815,77.286z
	 M 151.926,303.983c 14.972,24.555, 37.932,37.283, 68.889,38.192c 31.754-0.914, 55.274-13.279, 70.596-37.103
	c 15.304-23.829, 22.96-52.47, 22.96-85.935c0-33.466-7.656-61.923-22.96-85.384c-15.322-24.922-38.842-37.645-70.596-38.192
	C 190.848,96.111, 168.036,108.48, 152.41,132.663c-15.801,23.462-23.695,52.286-23.695,86.477C 128.71,251.15, 136.447,279.432, 151.926,303.983z" horiz-adv-x="448" data-tags="goodreads" />
<glyph unicode="&#x36;" d="M 105.746-38.446c 33.963,1.478, 75.215,0, 115.432,0c 41.512,0, 84.018,2.76, 117.492,0c 13.525-1.116, 25.966-9.211, 37.112-2.043
	c 8.602,11.079, 2.222,25.948, 4.126,40.853c 3.611,28.296, 29.702,62.223-8.257,69.44c-16.168-14.735-5.268-28.726-14.421-46.977
	c-11.088-22.1-50.812-29.743-88.637-32.673c-32.462-2.522-89.363-5.775-101.011,16.334c-9.834,18.659-4.131,47.6-4.131,71.483
	c0,27.014-2.899,52.877, 4.131,73.535c 41.238-3.015, 94.568,13.745, 123.679-4.081c 19.475-11.935, 8.4-35.289, 30.921-42.892
	c 15.501,4.162, 7.226,24.196, 6.178,42.892c-0.663,12.047-0.614,28.977,0,42.892c 0.833,18.78, 8.082,40.562-12.374,40.849
	c-16.065-12.486-3.987-33.295-20.617-44.93c-5.313-3.727-16.854-5.3-24.721-6.138c-30.894-3.261-79.35-0.6-105.141,4.090
	c-3.553,37.641-3.248,88.937,0,126.632c 14,13.906, 46.202,14.39, 68.029,14.305c 38.237-0.152, 97.866-3.333, 109.249-22.472
	c 6.196-10.412, 1.286-32.202, 12.374-34.72c 22.306-5.094, 11.464,34.707, 12.374,53.106c 0.672,13.794, 6.769,22.678, 4.113,32.682
	c-7.217,9.86-17.974,4.919-24.73,4.081C 276.77,349.128, 170.236,353.72, 95.437,353.72c-8.933,0-24.537,4.453-30.916-6.129
	c-4.314-23.592, 27.892-13.839, 39.16-26.553c 3.665-4.135, 9.081-22.4, 10.308-34.724c 3.261-32.735,0-82.732,0-130.722
	c0-50.709, 3.848-101.862,0-132.765c-1.344-10.792-7.853-28.175-10.308-30.639c-14.045-14.031-51.171,1.51-47.416-28.6
	C 69.31-45.188, 88.207-39.212, 105.746-38.446z" horiz-adv-x="448" data-tags="etsy" />
<glyph unicode="&#x37;" d="M 384,160q0-62.75 -36.625-112.875t-94.625-69.375q-6.75-1.25 -9.875,1.75t-3.125,7.5l0,52.75 q0,24.25 -13,35.5q 14.25,1.5 25.625,4.5t 23.5,9.75t 20.25,16.625t 13.25,26.25t 5.125,37.625q0,30.25 -19.75,51.5q 9.25,22.75 -2,51q-7,2.25 -20.25-2.75t-23-11l-9.5-6q-23.25,6.5 -48,6.5t-48-6.5q-4,2.75 -10.625,6.75t-20.875,9.625t-21.5,3.375 q-11-28.25 -1.75-51q-19.75-21.25 -19.75-51.5q0-21.25 5.125-37.5t 13.125-26.25t 20.125-16.75t 23.5-9.75t 25.625-4.5q-10-9 -12.25-25.75q-5.25-2.5 -11.25-3.75t-14.25-1.25t-16.375,5.375t-13.875,15.625q-4.75,8 -12.125,13t-12.375,6l-5,0.75q-5.25,0 -7.25-1.125t-1.25-2.875t 2.25-3.5t 3.25-3l 1.75-1.25q 5.5-2.5 10.875-9.5t 7.875-12.75l 2.5-5.75 q 3.25-9.5 11-15.375t 16.75-7.5t 17.375-1.75t 13.875,0.875l 5.75,1q0-9.5 0.125-22.25t 0.125-13.5q0-4.5 -3.25-7.5t-10-1.75q-58,19.25 -94.625,69.375t-36.625,112.875q0,52.25 25.75,96.375t 69.875,69.875t 96.375,25.75t 96.375-25.75t 69.875-69.875t 25.75-96.375z" horiz-adv-x="384" data-tags="github, social" />
<glyph unicode="&#x38;" d="M 407.273-2.909L 40.727-2.909 c-22.481,0-40.727,18.245-40.727,40.727L0,282.181 c0,22.481, 18.245,40.727, 40.727,40.727l 366.545,0 c 22.481,0, 40.727-18.245, 40.727-40.727l0-244.364 
	C 448,15.337, 429.755-2.909, 407.273-2.909z M 386.909,37.818l-116.724,102.144L 224,98.909l-46.185,41.053L 61.091,37.818L 386.909,37.818 z M 40.727,58.182l 114.545,101.819L 40.727,261.819L 40.727,58.182 z M 61.091,282.181l 162.909-142.545l 162.909,142.545L 61.091,282.181 z M 407.273,261.819
	l-114.545-101.819L 407.273,58.182L 407.273,261.819 z" data-tags="mail, email, envelope, contact" />
<glyph unicode="&#x39;" d="M 384,48l0-32 q0-6.5 -4.75-11.25t-11.25-4.75l-352,0 q-6.5,0 -11.25,4.75t-4.75,11.25l0,32 q0,6.5 4.75,11.25t 11.25,4.75l 352,0 q 6.5,0 11.25-4.75t 4.75-11.25zM 384,176l0-32 q0-6.5 -4.75-11.25t-11.25-4.75l-352,0 q-6.5,0 -11.25,4.75t-4.75,11.25l0,32 q0,6.5 4.75,11.25t 11.25,4.75l 352,0 q 6.5,0 11.25-4.75t 4.75-11.25zM 384,304l0-32 q0-6.5 -4.75-11.25 t-11.25-4.75l-352,0 q-6.5,0 -11.25,4.75t-4.75,11.25l0,32 q0,6.5 4.75,11.25t 11.25,4.75l 352,0 q 6.5,0 11.25-4.75t 4.75-11.25z" horiz-adv-x="384" data-tags="reorder, list, menu" />
<glyph unicode="&#x20;" horiz-adv-x="224" />
</font>
</defs>
</svg>
